<?xml version="1.0" standalone="no"?>
<!DOCTYPE svg PUBLIC "-//W3C//DTD SVG 1.1//EN" "http://www.w3.org/Graphics/SVG/1.1/DTD/svg11.dtd" >
<svg xmlns="http://www.w3.org/2000/svg">
<metadata>Generated by IcoMoon</metadata>
<defs>
<font id="icomoon" horiz-adv-x="1024">
<font-face units-per-em="1024" ascent="960" descent="-64" />
<missing-glyph horiz-adv-x="1024" />
<glyph unicode="&#x20;" horiz-adv-x="512" d="" />
<glyph unicode="&#xe900;" glyph-name="agrandire" d="M121.905-39.619c-53.861 0-97.524 43.663-97.524 97.524v0 780.19c0 53.861 43.663 97.524 97.524 97.524v0h780.19c53.861 0 97.524-43.663 97.524-97.524v0-780.19c0-53.861-43.663-97.524-97.524-97.524v0zM121.905 57.905h780.19v780.19h-780.19zM341.163 277.163c-8.836 8.826-14.301 21.024-14.301 34.499s5.466 25.673 14.301 34.499v0l296.911 296.887h-174.836c-26.93 0-48.762 21.831-48.762 48.762s21.831 48.762 48.762 48.762v0h341.333v-341.333c0-26.93-21.831-48.762-48.762-48.762s-48.762 21.831-48.762 48.762v0 174.836l-296.984-296.911c-8.808-8.836-20.991-14.303-34.45-14.303s-25.643 5.467-34.449 14.302l-0.001 0.001z" />
<glyph unicode="&#xe901;" glyph-name="Dupliquer-fiche-patient" horiz-adv-x="896" d="M205.804-64c-44.299 0.035-80.203 35.925-80.261 80.215v737.982c0.058 44.295 35.963 80.185 80.258 80.22h369.196c14.336 0 39.465-4.383 91.197-42.291 36.835-27.88 69.479-56.53 99.939-87.343l0.085-0.086c30.914-30.534 59.57-63.165 85.81-97.731l1.64-2.253c37.949-51.692 42.332-76.841 42.332-91.177v-497.336c-0.082-44.282-35.974-80.153-80.257-80.2h-0.004zM189.768 754.196v-737.997c0.125-8.813 7.242-15.922 16.046-16.036h609.926c8.806 0.125 15.911 7.23 16.036 16.024v497.348h-224.707c-17.724 0-32.092 14.368-32.092 32.092v0 224.625h-369.172c-8.786-0.191-15.857-7.269-16.036-16.039v-0.017zM639.181 577.741h154.44c-23.543 29.832-47.343 56.442-72.657 81.526l-0.067 0.066c-25.158 25.4-51.782 49.207-79.791 71.341l-1.843 1.404zM358.236 59.884c-19.251 0.251-34.791 15.79-35.041 35.017v40.984c0 1.229 6.349 110.592 134.042 132.403-30.784 19.51-50.923 53.397-50.923 91.987 0 0.514 0.004 1.028 0.011 1.541l-0.001-0.078c-0.051 1.216-0.081 2.642-0.081 4.075 0 55.151 43.443 100.155 97.975 102.659l0.225 0.008c54.765-2.503 98.217-47.511 98.217-102.668 0-1.397-0.028-2.787-0.083-4.17l0.006 0.199c0.007-0.46 0.011-1.003 0.011-1.547 0-38.687-20.266-72.64-50.761-91.823l-0.45-0.264c70.648-9.539 125.784-65.317 134.255-135.468l0.073-0.745v-37.069c-0.251-19.251-15.79-34.791-35.017-35.041h-0.024zM0 141.742v738.038c-0.002 0.233-0.004 0.508-0.004 0.784 0 43.537 35.023 78.895 78.432 79.436l0.051 0.001h361.021c14.070 0 38.605-4.383 89.19-42.312 8.745-6.554 17.961-13.926 27.423-21.852h-477.635c-8.706-0.206-15.688-7.302-15.708-16.034v-816.642c-36.162 8.129-62.773 39.967-62.773 78.020 0 0.197 0.001 0.395 0.002 0.592v-0.030z" />
<glyph unicode="&#xe902;" glyph-name="uniE902" d="M1024 448c0-282.77-229.23-512-512-512s-512 229.23-512 512c0 282.77 229.23 512 512 512s512-229.23 512-512z" />
<glyph unicode="&#xe903;" glyph-name="uniE903" d="M731.502 173.714h-439.003c-20.198 0-36.571 16.374-36.571 36.571v0 283.557c0 0.878 0 1.829 0.091 2.597h-50.743c-0.089-0.002-0.195-0.003-0.301-0.003-7.839 0-14.5 5.049-16.905 12.073l-0.037 0.126c-0.713 1.854-1.125 3.999-1.125 6.241 0 5.709 2.678 10.793 6.847 14.064l0.039 0.029 306.743 247.003c3.109 2.521 7.113 4.048 11.474 4.048s8.366-1.527 11.508-4.075l-0.034 0.027 306.651-246.985c4.174-3.379 6.82-8.503 6.82-14.245 0-10.099-8.187-18.285-18.285-18.286h-50.688c0-0.987 0.091-1.829 0.091-2.597v-283.575c0-20.198-16.374-36.571-36.571-36.571v0zM427.849 445.385c-10.099 0-18.286-8.187-18.286-18.286v0-31.36c0-10.099 8.187-18.286 18.286-18.286v0h49.993v-49.664c0-10.099 8.187-18.286 18.286-18.286v0h31.726c10.099 0 18.286 8.187 18.286 18.286v0 49.755h49.993c10.099 0 18.286 8.187 18.286 18.286v0 31.269c0 10.099-8.187 18.286-18.286 18.286v0h-49.975v49.755c0 10.099-8.187 18.286-18.286 18.286v0h-31.726c-10.099 0-18.286-8.187-18.286-18.286v0-49.755z" />
<glyph unicode="&#xe904;" glyph-name="Groupe-637" horiz-adv-x="1065" d="M895.609 792.34h-93.847v49.187c-0.188 19.008-15.64 34.345-34.675 34.345-0.094 0-0.188 0-0.282-0.001h-52.234c-0.080 0.001-0.174 0.001-0.268 0.001-19.035 0-34.488-15.337-34.675-34.327v-49.271h-294.454v49.253c-0.188 19.008-15.64 34.345-34.675 34.345-0.094 0-0.188 0-0.282-0.001h-52.168c-0.080 0.001-0.174 0.001-0.268 0.001-19.035 0-34.488-15.337-34.675-34.327v-49.271h-93.847c-0.258 0.002-0.564 0.004-0.87 0.004-54.592 0-98.909-43.992-99.433-98.46v-575.114c0.525-54.518 44.842-98.51 99.434-98.51 0.306 0 0.611 0.001 0.916 0.004h726.304c0.278-0.003 0.607-0.004 0.936-0.004 54.592 0 98.909 43.993 99.433 98.461v575.114c-0.525 54.518-44.842 98.511-99.434 98.511-0.329 0-0.658-0.002-0.986-0.005h0.050zM924.628 127.089c0-19.703-15.972-35.675-35.675-35.675h-713.039c-19.703 0-35.675 15.972-35.675 35.675v0 427.904h784.39zM502.116 147.256l-150.622 151.087c-7.384 7.409-11.95 17.631-11.95 28.92 0 22.627 18.343 40.969 40.969 40.969 11.338 0 21.601-4.606 29.018-12.048l90.055-90.321 191.821 209.792c7.512 8.197 18.267 13.318 30.217 13.318 22.61 0 40.94-18.329 40.94-40.94 0-10.66-4.074-20.368-10.75-27.652l0.028 0.030z" />
<glyph unicode="&#xe905;" glyph-name="Dupliquer-fiche-patient1" horiz-adv-x="893" d="M812.906-64h-607.806c-44.173 0.156-79.922 36.001-79.922 80.196 0 0.009 0 0.018 0 0.027v-0.001 737.979c0 0.008 0 0.016 0 0.025 0 44.19 35.752 80.029 79.908 80.171h367.905c14.311 0 39.312-4.396 90.886-42.309 36.699-27.866 69.238-56.509 99.597-87.307l0.106-0.108c30.78-30.495 59.328-63.098 85.465-97.629l1.65-2.274c37.813-51.675 42.184-76.775 42.184-91.161v-497.389c0-0.007 0-0.016 0-0.025 0-44.212-35.777-80.069-79.96-80.196h-0.012zM512 512.937c-63.911-2.89-114.631-55.406-114.631-119.768 0-1.657 0.034-3.305 0.1-4.946l-0.008 0.235c-0.007-0.513-0.012-1.118-0.012-1.725 0-45.047 23.513-84.602 58.936-107.062l0.518-0.307c-57.077-6.962-105.359-39.453-133.692-85.526l-0.452-0.789c-11.783-19.585-19.753-42.752-22.27-67.532l-0.058-0.702v-47.953c0.264-22.497 18.417-40.668 40.882-40.96h341.37c22.467 0.291 40.604 18.42 40.91 40.856v43.312c-3.14 26.218-11.428 49.958-23.838 70.976l0.461-0.845c-28.362 47.499-76.327 80.776-132.44 88.749l-0.979 0.114c36.124 22.721 59.779 62.37 59.779 107.544 0 0.624-0.005 1.247-0.014 1.868l0.001-0.094c0.061 1.427 0.096 3.102 0.096 4.784 0 64.372-50.736 116.894-114.4 119.76l-0.258 0.009zM636.878 732.197v-154.349h153.9c-23.522 29.842-47.266 56.452-72.512 81.554l-0.042 0.042c-25.089 25.357-51.619 49.133-79.519 71.256l-1.827 1.398zM62.439 63.151v0c-36 8.276-62.441 40.043-62.441 77.987 0 0.215 0.001 0.43 0.003 0.644v-0.033 738.029c-0.003 0.27-0.005 0.588-0.005 0.907 0 43.415 34.879 78.684 78.145 79.314l0.059 0.001h359.649c14.011 0 38.462-4.396 88.888-42.334 8.716-6.544 17.908-13.911 27.323-21.854h-475.86c-8.685-0.237-15.635-7.334-15.635-16.054 0-0.002 0-0.004 0-0.006v0-816.702z" />
<glyph unicode="&#xe906;" glyph-name="Groupe-839" horiz-adv-x="912" d="M644.19 53.752v-20.825h-547.186v669.119h20.748v97.004h-69.289c-26.748-0.044-48.419-21.715-48.463-48.459v-766.436c0.044-26.748 21.715-48.419 48.459-48.463h644.194c13.392 0.052 25.504 5.484 34.297 14.246l-0.001-0.001c8.753 8.732 14.168 20.806 14.168 34.146 0 0.053 0 0.106 0 0.159v-0.008 69.676zM912.132 788.985v6.968l-0.852 2.013c0 0.774 0 1.548-0.465 2.168-0.534 2.26-1.118 4.147-1.813 5.981l0.109-0.329c-0.465 1.239-0.929 2.477-1.548 3.716s-1.161 2.323-1.858 3.484c-1.435 2.437-2.918 4.537-4.554 6.504l0.064-0.079c-0.929 1.239-1.935 2.245-2.090 2.4l-117.287 123.481c-4.3 4.549-9.44 8.252-15.18 10.869l-0.304 0.124-1.626 0.697c-2.165 0.913-4.752 1.739-7.424 2.34l-0.318 0.060-3.716 0.697h-533.793c-26.748-0.044-48.419-21.715-48.463-48.459v-766.436c0.044-26.748 21.715-48.419 48.459-48.463h644.194c26.766 0 48.463 21.698 48.463 48.463v0zM268.019 840.932v22.141h430.286v-74.088c0.044-26.748 21.715-48.419 48.459-48.463h68.286v-546.567h-547.031v644.964c0 0.697 0 1.316 0 2.013z" />
<glyph unicode="&#xe907;" glyph-name="Groupe-840" horiz-adv-x="1205" d="M692.606-64c-33.333 0.037-60.34 27.067-60.34 60.405 0 16.664 6.748 31.752 17.66 42.681l348.478 348.478h-938c-33.361 0-60.405 27.044-60.405 60.405s27.044 60.405 60.405 60.405h938l-348.479 348.479c-10.945 10.937-17.715 26.050-17.715 42.744 0 33.373 27.054 60.427 60.427 60.427 16.678 0 31.779-6.757 42.712-17.683l451.627-451.563c10.915-10.938 17.665-26.037 17.665-42.712s-6.75-31.774-17.666-42.713l-451.626-451.626c-10.876-10.948-25.939-17.725-42.586-17.725-0.056 0-0.111 0-0.167 0h0.009z" />
<glyph unicode="&#xe908;" glyph-name="floating-call" d="M598.284 419.589c-5.217 2.162-12.184 3.989-15.809 0.383-6.12-6.351-11.517-13.469-16.016-21.176l-0.285-0.529c-6.996-11.319-14.178-22.953-31.442-22.953-24.338 0-47.016 22.678-68.947 44.618s-44.618 44.618-44.618 68.947c0 17.342 11.132 24.191 22.923 31.442 8.254 4.796 15.388 10.206 21.789 16.373l-0.035-0.033c3.803 3.803 1.385 11.525-0.393 15.79-10.219 24.662-46.721 56.095-57.873 56.095v0c-10.366 0-36.581-29.565-56.006-58.276 1.552-40.983 43.066-122.536 82.535-162.005s121.032-81.003 162.015-82.535c28.73 19.474 58.325 45.67 58.325 56.006-0.088 11.142-31.501 47.645-56.163 57.853zM502.169 773.313c-174.236 0-315.482-141.246-315.482-315.482s141.246-315.482 315.482-315.482c174.236 0 315.482 141.246 315.482 315.482v0c0 174.236-141.246 315.482-315.482 315.482v0zM602.391 291.856l-1.828-1.307h-2.339c-43.557 0-131.85 43.911-174.956 87.016s-87.016 131.389-87.016 174.946v2.319l1.268 1.906c7.448 11.182 45.797 66.972 69.89 66.972 19.268 0 60.231-37.337 71.855-65.429 7.124-17.165 2.358-27.030-2.948-32.287-7.188-6.938-15.244-13.057-23.967-18.159l-0.597-0.323c-11.634-7.192-15.672-10.111-15.672-18.57 0-18.069 20.428-38.497 40.187-58.256s40.187-40.187 58.256-40.187c8.45 0 11.378 4.038 18.58 15.721 5.417 9.289 11.522 17.319 18.478 24.522l-0.035-0.037c5.267 5.267 15.132 10.032 32.307 2.948 28.121-11.653 65.419-52.616 65.419-71.855 0.118-23.405-51.133-59.416-66.844-69.939z" />
<glyph unicode="&#xe909;" glyph-name="teleconsult" horiz-adv-x="1815" d="M1785.738 901.898c-18.639 11.358-41.21 12.086-60.432 2.039l-302.307-158.143v54.171c0 88.246-71.791 160.036-160.036 160.036h-1102.926c-88.246 0-160.036-71.791-160.036-160.036v-703.782c0-88.246 71.791-160.036 160.036-160.036h1102.926c88.246 0 160.036 71.791 160.036 160.036l-0.291 44.268 303.909-148.969c21.115-10.339 45.87-7.863 64.801 6.699 15.436 11.941 23.59 30.871 23.59 50.385v798.58c0 21.989-10.485 43.249-29.27 54.753z" />
<glyph unicode="&#xe90a;" glyph-name="sphere" d="M480 896c-265.096 0-480-214.904-480-480s214.904-480 480-480c265.098 0 480 214.902 480 480s-214.902 480-480 480zM751.59 256c8.58 40.454 13.996 83.392 15.758 128h127.446c-3.336-44.196-13.624-87.114-30.68-128h-112.524zM208.41 576c-8.58-40.454-13.996-83.392-15.758-128h-127.444c3.336 44.194 13.622 87.114 30.678 128h112.524zM686.036 576c9.614-40.962 15.398-83.854 17.28-128h-191.316v128h174.036zM512 640v187.338c14.59-4.246 29.044-11.37 43.228-21.37 26.582-18.74 52.012-47.608 73.54-83.486 14.882-24.802 27.752-52.416 38.496-82.484h-155.264zM331.232 722.484c21.528 35.878 46.956 64.748 73.54 83.486 14.182 10 28.638 17.124 43.228 21.37v-187.34h-155.264c10.746 30.066 23.616 57.68 38.496 82.484zM448 576v-128h-191.314c1.88 44.146 7.666 87.038 17.278 128h174.036zM95.888 256c-17.056 40.886-27.342 83.804-30.678 128h127.444c1.762-44.608 7.178-87.546 15.758-128h-112.524zM256.686 384h191.314v-128h-174.036c-9.612 40.96-15.398 83.854-17.278 128zM448 192v-187.34c-14.588 4.246-29.044 11.372-43.228 21.37-26.584 18.74-52.014 47.61-73.54 83.486-14.882 24.804-27.75 52.418-38.498 82.484h155.266zM628.768 109.516c-21.528-35.876-46.958-64.746-73.54-83.486-14.184-9.998-28.638-17.124-43.228-21.37v187.34h155.266c-10.746-30.066-23.616-57.68-38.498-82.484zM512 256v128h191.314c-1.88-44.146-7.666-87.040-17.28-128h-174.034zM767.348 448c-1.762 44.608-7.178 87.546-15.758 128h112.524c17.056-40.886 27.344-83.806 30.68-128h-127.446zM830.658 640h-95.9c-18.638 58.762-44.376 110.294-75.316 151.428 42.536-20.34 81.058-47.616 114.714-81.272 21.48-21.478 40.362-44.938 56.502-70.156zM185.844 710.156c33.658 33.658 72.18 60.932 114.714 81.272-30.942-41.134-56.676-92.666-75.316-151.428h-95.898c16.138 25.218 35.022 48.678 56.5 70.156zM129.344 192h95.898c18.64-58.762 44.376-110.294 75.318-151.43-42.536 20.34-81.058 47.616-114.714 81.274-21.48 21.478-40.364 44.938-56.502 70.156zM774.156 121.844c-33.656-33.658-72.18-60.934-114.714-81.274 30.942 41.134 56.678 92.668 75.316 151.43h95.9c-16.14-25.218-35.022-48.678-56.502-70.156z" />
<glyph unicode="&#xe90b;" glyph-name="noTeleconsult" horiz-adv-x="1194" d="M146.504 104.484l570.673 673.576h-611.852c-58.045 0-105.325-47.279-105.325-105.325v-462.926c0-58.045 47.279-105.325 105.325-105.325h41.179zM1174.72 739.841c-12.201 7.446-27.094 7.985-39.743 1.346l-198.807-104.069v35.617c0 28.709-11.573 54.726-30.234 73.656l-543.938-641.906h468.847c58.045 0 105.325 47.279 105.325 105.325l-0.179 29.157 199.973-98.058c13.816-6.818 30.144-5.203 42.614 4.396 10.138 7.805 15.521 20.365 15.521 33.194v525.278c0 14.444-6.908 28.439-19.289 35.975zM942.636 959.979l42.509-36.012-836.977-987.978-42.509 36.012 836.977 987.978z" />
<glyph unicode="&#xe90c;" glyph-name="Fichier-21" horiz-adv-x="2432" d="M2016.316 958.817c-422.142-40.361-1180.446-40.361-1602.588 0-245.976 19.326-436.34-196.018-411.625-436.998-20.903-425.823 601.201-781.048 997.049-464.606 83.876 67.574 206.010 95.314 309.606 62.841 1000.993-690.861 1554.34 802.74 707.558 838.762zM881.884 471.335c-213.503-156.709-669.301-44.173-523.635 130.021 164.597 171.565 707.952 45.619 523.635-130.021zM2067.063 473.965c-141.59-152.634-707.821-52.981-521.531 132.256 116.217 68.757 322.227 144.614 524.818-4.864 18.938-14.558 31.024-37.22 31.024-62.705 0-26.911-13.476-50.674-34.048-64.91l-0.262-0.172z" />
<glyph unicode="&#xe90d;" glyph-name="phone" d="M704 320c-64-64-64-128-128-128s-128 64-192 128-128 128-128 192 64 64 128 128-128 256-192 256-192-192-192-192c0-128 131.5-387.5 256-512s384-256 512-256c0 0 192 128 192 192s-192 256-256 192z" />
<glyph unicode="&#xe90e;" glyph-name="survey" horiz-adv-x="1255" d="M237.832 893.935c-320.413-198.194-320.413-693.677 0-891.871 118.916-72.671 436.026-92.49 475.665-29.729 13.213 26.426 29.729 26.426 56.155 0 69.368-69.368 142.039-36.335 317.11 142.039 151.948 155.252 171.768 188.284 135.432 231.226-62.761 75.974-99.097 66.065-237.832-69.368-122.219-118.916-128.826-122.219-184.981-59.458-52.852 59.458-52.852 59.458 3.303 16.516 49.548-36.335 69.368-33.032 138.735 33.032 161.858 151.948 79.277 485.574-155.252 627.613-145.342 89.187-402.994 89.187-548.335 0zM654.039 738.684c9.91-138.735 9.91-138.735 148.645-148.645s138.735-9.91 138.735-138.735c0-125.523-3.303-132.129-148.645-165.161-142.039-33.032-148.645-42.942-148.645-151.948 0-112.31-3.303-115.613-132.129-115.613-132.129 0-132.129 0-142.039 138.735s-9.91 138.735-148.645 148.645-138.735 9.91-138.735 142.039 0 132.129 142.039 142.039c135.432 9.91 138.735 13.213 138.735 135.432 0 155.252 19.819 175.071 165.161 161.858 109.006-9.91 115.613-16.516 125.523-148.645z" />
<glyph unicode="&#xe90f;" glyph-name="sync" d="M0 448c0-125.725 51.768-238.933 133.973-321.139l-133.973-133.973h341.333v341.333l-127.147-127.147c-62.008 61.725-100.408 146.773-100.408 240.925 0 148.48 95.005 274.488 227.555 321.421v118.899c-196.267-50.632-341.333-228.408-341.333-440.32zM455.112 277.333h113.779v-113.779h-113.779v113.779zM1024 903.112h-341.333v-341.333l127.147 127.147c62.008-61.725 100.408-146.773 100.408-240.925 0-148.48-95.005-274.488-227.555-321.421v-118.613c196.267 50.347 341.333 228.125 341.333 440.035 0 125.725-51.768 238.933-133.973 321.139l133.973 133.973zM455.112 732.445h113.779v-341.333h-113.779v341.333z" />
<glyph unicode="&#xe910;" glyph-name="teamviewer" d="M964.139-64h-904.149c-33.092 0.097-59.893 26.897-59.989 59.98v904.030c0.097 33.092 26.897 59.893 59.98 59.989h904.158c33.092-0.097 59.893-26.897 59.989-59.98v-904.030c-0.097-33.092-26.897-59.893-59.98-59.989h-0.009zM508.203 870.016c-230.613-2.005-416.555-191.232-418.219-421.973-1.707-234.965 186.923-421.76 421.973-421.973 231.040-0.128 417.963 192 421.973 421.973 4.139 237.739-187.989 424.064-425.728 421.973zM411.733 591.659l-37.931-92.117h278.997l-37.931 92.117 283.392-143.573-283.392-143.573 37.931 92.117h-278.997l37.632-92.117-284.117 143.573z" />
<glyph unicode="&#xe911;" glyph-name="avis-patient" horiz-adv-x="1251" d="M187.484 938.568l57.943-117.402 129.636-18.872-93.789-91.324 22.096-129.067-115.885 60.882-115.885-60.882 22.191 129.067-93.789 91.324 129.541 18.872 57.943 117.402zM615.272 938.568l57.943-117.402 129.636-18.872-93.789-91.324 22.096-129.067-115.885 60.882-115.885-60.882 22.191 129.067-93.789 91.324 129.541 18.872 57.943 117.402zM1171.559 564.549l-128.403 67.521-128.593-67.521 24.277 143.102-104.316 101.281 143.671 20.863 64.96 130.205 64.296-130.205 143.576-20.863-103.557-101.281zM1043.156 653.502l103.178-53.865-19.725 114.652 83.642 81.461-115.506 16.785-51.589 104.6-51.684-104.316-115.506-17.070 83.547-81.461-19.725-114.652zM763.306-64.19h-189.665c-0.853 0-34.898 4.267-36.321 45.425-0.853 23.803-66.383 110.29-127.739 183.311-8.748 10.271-14.513 23.326-15.818 37.669l-0.019 0.264c-2.371 28.45 7.966 48.365 29.967 56.899 6.078 2.361 13.113 3.729 20.468 3.729 14.764 0 28.241-5.513 38.483-14.593l-0.060 0.053 32.243-27.786-2.276 227.124c-0.009 0.394-0.014 0.858-0.014 1.323 0 11.605 3.065 22.494 8.431 31.901l-0.167-0.317c12.139 20.673 32.433 28.45 60.313 24.087 28.364-4.695 49.835-28.708 50.544-57.869l0.001-0.073v-54.529c3.546 0.833 7.618 1.311 11.802 1.311 21.501 0 40.054-12.619 48.657-30.856l0.139-0.328c7.83 4.874 17.333 7.763 27.512 7.763 6.782 0 13.265-1.283 19.219-3.619l-0.358 0.124c15.21-8.431 26.577-22.234 31.645-38.79l0.124-0.47c5.527 5.043 12.508 8.583 20.243 9.923l0.241 0.035c1.917 0.357 4.122 0.561 6.375 0.561 10.688 0 20.304-4.593 26.981-11.912l0.026-0.029c8.228-8.748 13.284-20.563 13.284-33.558 0-0.305-0.003-0.609-0.008-0.912l0.001 0.046v-212.425c0.005-0.302 0.008-0.659 0.008-1.017 0-17.42-6.71-33.272-17.686-45.114l0.039 0.043c-25.605-26.838-36.89-67.995-40.493-84.496-1.707-7.435-8.267-12.897-16.103-12.897-0.007 0-0.013 0-0.020 0h0.001zM443.247 254.542c-0.051 0-0.111 0-0.171 0-5.89 0-11.502-1.185-16.613-3.33l0.283 0.105c-17.923-7.302-26.079-23.329-24.087-47.416 1.172-12.639 6.174-23.927 13.819-32.894l-0.069 0.082c38.692-46.183 128.782-157.042 129.92-189.096s26.269-36.7 27.312-36.7h189.665c3.406 0.023 6.241 2.435 6.915 5.644l0.008 0.046c3.888 17.165 15.647 60.313 42.864 88.953 9.351 10.108 15.086 23.679 15.086 38.59 0 0.336-0.003 0.671-0.009 1.005l0.001-0.050v212.614c0.006 0.252 0.009 0.549 0.009 0.846 0 10.426-4.045 19.908-10.651 26.961l0.020-0.022c-5.007 5.606-12.257 9.118-20.327 9.118-1.63 0-3.226-0.143-4.778-0.418l0.164 0.024c-8.616-1.54-15.855-6.479-20.413-13.352l-0.071-0.114-8.061-12.328-0.664 16.027s-7.302 30.157-28.45 39.45c-11.759 5.121-25.984 3.035-42.295-6.259l-4.836-2.75-1.991 5.216c-6.536 17.581-23.173 29.88-42.682 29.88-5.295 0-10.379-0.906-15.104-2.572l0.318 0.098-6.069-1.802v66.383c-0.308 24.773-18.594 45.184-42.397 48.804l-0.277 0.035c-23.993 4.078-40.588-2.276-50.546-19.535-4.43-7.71-7.042-16.952-7.042-26.804 0-0.579 0.009-1.156 0.027-1.73l-0.002 0.084 1.991-247.607-48.175 42.39c-8.677 7.617-20.091 12.304-32.597 12.423h-0.025z" />
<glyph unicode="&#xe912;" glyph-name="uniE906" d="M750.926 345.22c-68.296-67.849-68.296-136.146-136.146-136.146s-136.928 68.296-205.225 136.146-136.481 136.928-136.481 205.225 68.296 68.185 136.481 136.481-136.481 273.074-204.778 273.074-204.778-204.778-204.778-204.778c0-136.593 140.282-413.579 273.074-546.148s409.555-273.074 546.148-273.074c0 0 204.778 136.481 204.778 204.778s-204.778 273.074-273.074 204.442z" />
<glyph unicode="&#xe913;" glyph-name="uniE907" d="M986.89 626.454l7.489 273.857-273.745 7.489 75.786-89.87-259.549-242.894 107.642-113.678 262.791 257.313 79.586-92.217z" />
<glyph unicode="&#xe914;" glyph-name="uniE908" d="M750.926 345.22c-68.296-67.849-68.296-136.146-136.146-136.146s-136.928 68.296-205.225 136.146-136.481 136.928-136.481 205.225 68.296 68.185 136.481 136.481-136.481 273.074-204.778 273.074-204.778-204.778-204.778-204.778c0-136.593 140.282-413.579 273.074-546.148s409.555-273.074 546.148-273.074c0 0 204.778 136.481 204.778 204.778s-204.778 273.074-273.074 204.442z" />
<glyph unicode="&#xe915;" glyph-name="uniE909" d="M1014.052 663.564l7.601 273.857-273.745 7.489 75.674-89.87-259.437-242.894 107.531-113.678 262.902 257.313 79.474-92.217z" />
<glyph unicode="&#xe916;" glyph-name="uniE90E" d="M804.571 448c0-161.583-130.989-292.571-292.571-292.571s-292.571 130.989-292.571 292.571c0 161.583 130.989 292.571 292.571 292.571s292.571-130.989 292.571-292.571z" />
<glyph unicode="&#xe917;" glyph-name="uniE90F" d="M559.543 444.672c28.737 18.080 47.554 49.624 47.554 85.564 0 0.519-0.004 1.037-0.012 1.555l0.001-0.078c0.046 1.109 0.072 2.409 0.072 3.716 0 51.252-40.362 93.076-91.034 95.421l-0.211 0.008c-50.9-2.344-91.28-44.18-91.28-95.448 0-1.294 0.026-2.582 0.077-3.863l-0.006 0.184c-0.006-0.425-0.010-0.926-0.010-1.429 0-35.854 18.721-67.335 46.921-85.203l0.412-0.244c-118.711-20.334-124.599-121.929-124.599-123.026v-38.217c0.244-17.887 14.68-32.323 32.544-32.567h271.877c17.887 0.244 32.323 14.68 32.567 32.544v34.473c-7.976 65.887-59.215 117.718-124.125 126.527l-0.748 0.083z" />
<glyph unicode="&#xe918;" glyph-name="blocNote" horiz-adv-x="740" d="M706.651 959.136h-179.418l-323.399 1.152h-170.487c-18.28-0.283-32.989-15.168-32.989-33.489 0-0.103 0-0.205 0.001-0.308v0.016-961.985c-0.001-0.086-0.002-0.188-0.002-0.29 0-15.308 12.308-27.742 27.569-27.944h679.084c18.029 0.158 32.627 14.629 32.988 32.594l0.001 0.034v956.151c0.004 0.193 0.006 0.42 0.006 0.648 0 18.434-14.925 33.383-33.351 33.42h-0.004zM610.28 481.168h-480.921c-22.184 0-39.543 23.048-39.543 52.435-0.196 1.618-0.308 3.491-0.308 5.391 0 24.151 18.064 44.082 41.418 47.020l0.233 0.024h477.391c23.587-2.962 41.651-22.894 41.651-47.044 0-1.9-0.112-3.773-0.329-5.614l0.021 0.223c-0.072-29.459-17.43-52.435-39.615-52.435zM610.28 271.139h-480.921c-22.184 0-39.543 23.048-39.543 52.435-0.176 1.532-0.276 3.308-0.276 5.107 0 24.139 18.047 44.064 41.385 47.016l0.234 0.024h477.391c23.587-2.962 41.651-22.894 41.651-47.044 0-1.9-0.112-3.773-0.329-5.614l0.021 0.223c-0.072-29.099-17.43-52.147-39.615-52.147zM610.28 61.11h-480.921c-22.184 0-39.543 23.048-39.543 52.435-0.196 1.618-0.308 3.491-0.308 5.391 0 24.151 18.064 44.082 41.418 47.020l0.233 0.024h477.391c23.587-2.962 41.651-22.894 41.651-47.044 0-1.9-0.112-3.773-0.329-5.614l0.021 0.223c-0.072-29.387-17.43-52.435-39.615-52.435z" />
<glyph unicode="&#xe919;" glyph-name="infoIcon" d="M477.451 191.994h76.749v307.193h-76.749zM512.111 593.909c0.34-0.010 0.74-0.015 1.141-0.015 11.219 0 21.413 4.39 28.958 11.545l-0.019-0.018c7.504 7.086 12.175 17.103 12.175 28.211 0 0.431-0.007 0.861-0.021 1.288l0.002-0.062c0.004 0.222 0.006 0.483 0.006 0.745 0 11.661-4.639 22.239-12.172 29.989l0.010-0.010c-7.606 7.897-18.27 12.802-30.081 12.802s-22.475-4.905-30.068-12.789l-0.013-0.013c-7.523-7.74-12.162-18.318-12.162-29.979 0-0.262 0.002-0.523 0.007-0.784l-0.001 0.039c-0.012-0.365-0.019-0.795-0.019-1.226 0-11.108 4.671-21.125 12.157-28.193l0.019-0.017c7.526-7.138 17.72-11.528 28.939-11.528 0.401 0 0.801 0.006 1.2 0.017l-0.059-0.001zM512.111-64.025c-0.772-0.004-1.686-0.007-2.599-0.007-70.777 0-138.087 14.842-198.989 41.582l3.18-1.245c-123.529 53.331-220.010 149.788-272.086 269.961l-1.288 3.338c-25.491 58.742-40.319 127.159-40.319 199.039s14.829 140.297 41.593 202.359l-1.274-3.32c27.282 63.201 64.408 117.145 110.050 162.536l0.023 0.023c45.773 45.204 99.889 82.088 159.811 108.117l3.391 1.312c58.742 25.491 127.159 40.319 199.039 40.319s140.297-14.829 202.359-41.593l-3.32 1.274c123.044-52.89 219.111-148.949 270.739-268.669l1.273-3.318c25.491-58.742 40.319-127.159 40.319-199.039s-14.829-140.297-41.593-202.359l1.274 3.32c-27.341-63.313-64.225-117.429-109.482-163.256l0.053 0.054c-45.414-45.665-99.359-82.791-159.251-108.794l-3.307-1.279c-57.928-25.499-125.462-40.341-196.463-40.341-1.136 0-2.272 0.004-3.406 0.011l0.174-0.001zM513.399 12.724c2.089-0.038 4.554-0.059 7.023-0.059 117.79 0 224.182 48.804 300.056 127.295l0.113 0.118c78.261 76.662 126.778 183.43 126.778 301.529 0 2.67-0.025 5.335-0.074 7.993l0.006-0.399c0.039 2.134 0.061 4.651 0.061 7.172 0 117.624-48.537 223.912-126.676 299.928l-0.095 0.092c-76.345 78.338-182.889 126.93-300.782 126.93-2.742 0-5.477-0.026-8.207-0.079l0.409 0.006c-2.069 0.037-4.508 0.057-6.953 0.057-117.895 0-224.456-48.522-300.804-126.685l-0.079-0.082c-78.669-76.227-127.498-182.853-127.498-300.882 0-2.698 0.026-5.389 0.076-8.074l-0.006 0.402c-0.035-2.017-0.055-4.395-0.055-6.779 0-118.068 48.789-224.741 127.305-300.958l0.103-0.1c76.55-78.636 183.426-127.42 301.697-127.42 2.629 0 5.252 0.024 7.87 0.072l-0.393-0.006z" />
<glyph unicode="&#xe925;" glyph-name="files-empty" d="M917.806 602.924c-22.21 30.292-53.174 65.7-87.178 99.704s-69.412 64.964-99.704 87.178c-51.574 37.82-76.592 42.194-90.924 42.194h-368c-44.114 0-80-35.888-80-80v-736c0-44.112 35.886-80 80-80h608c44.112 0 80 35.888 80 80v496c0 14.332-4.372 39.35-42.194 90.924zM785.374 657.374c30.7-30.7 54.8-58.398 72.58-81.374h-153.954v153.946c22.982-17.78 50.678-41.878 81.374-72.572v0zM896 16c0-8.672-7.328-16-16-16h-608c-8.672 0-16 7.328-16 16v736c0 8.672 7.328 16 16 16 0 0 367.956 0.002 368 0v-224c0-17.672 14.324-32 32-32h224v-496zM602.924 917.804c-51.574 37.822-76.592 42.196-90.924 42.196h-368c-44.112 0-80-35.888-80-80v-736c0-38.632 27.528-70.958 64-78.39v814.39c0 8.672 7.328 16 16 16h486.876c-9.646 7.92-19.028 15.26-27.952 21.804z" />
<glyph unicode="&#xe954;" glyph-name="printer" d="M256 896h512v-128h-512v128zM960 704h-896c-35.2 0-64-28.8-64-64v-320c0-35.2 28.794-64 64-64h192v-256h512v256h192c35.2 0 64 28.8 64 64v320c0 35.2-28.8 64-64 64zM128 512c-35.346 0-64 28.654-64 64s28.654 64 64 64 64-28.654 64-64-28.652-64-64-64zM704 64h-384v320h384v-320z" />
<glyph unicode="&#xea3c;" glyph-name="arrow-right2" d="M621.254 82.746l320 320c24.994 24.992 24.994 65.516 0 90.51l-320 320c-24.994 24.992-65.516 24.992-90.51 0-24.994-24.994-24.994-65.516 0-90.51l210.746-210.746h-613.49c-35.346 0-64-28.654-64-64s28.654-64 64-64h613.49l-210.746-210.746c-12.496-12.496-18.744-28.876-18.744-45.254s6.248-32.758 18.744-45.254c24.994-24.994 65.516-24.994 90.51 0z" />
</font>
</defs>
</svg>
